Yuva (2004) HDTV UNTOUCHED 720p Hindi x264 AAC [EXCLUSIVE] - LatestHDMovies mkv

Posted by LatestHDMovies •144 on July 10, 2018 in Movies » Drama , verified torrent

Size: 2.48 GB , Seeds: 6 , Peers: 4 ( Updated July 16, 2018 )

* Download via Magnet Link , * To download files you need a Bittorrent Client , * How to download torrents from Bit Torrent Scene?

Scrape History ( seeds + peers )

Internal Files

Yuva (2004) HDTV UNTOUCHED 720p Hindi x264 AAC [EXCLUSIVE] - LatestHDMovies.mkv
Yuva (2004) HDTV UNTOUCHED 720p Hindi x264 AAC [EXCLUSIVE] - LatestHDMovies.mkv   2.48 GB

Hash Code

e356661f1f167a025cfa73692d6343d3e1b0eae9

Description

SCREENSHOT



With Tv Ads



https://oload.stream/f/BEyZ03OfBP0/vlc-record-2018-07-10-07h27m01s-EXCLUSIVE_Upload_By_www.LatestHDMovies.org-.mp4




Visit Our Website ,Watch & Download Without Watermarks Movies
https://www.latesthdmovies.org


Fully Loaded in Few Days



SCREENSHOT



General
Unique ID : 219886635278009901545126864195465531571 (0xA56CA0226C306A46F5950607877450B3)
Complete name : C:UsersSHAHIDDocumentsApowersoftStreaming Video Recorder 6DownloadYuva (2004) HDTV UNTOUCHED 720p Hindi x264 AAC [EXCLUSIVE] - LatestHDMovies.mkv
Format : Matroska
Format version : Version 4 / Version 2
File size : 2.48 GiB
Duration : 2 h 52 min
Overall bit rate : 2 061 kb/s
Movie name : EXCLUSIVE Upload By www.LatestHDMovies.org
Encoded date : UTC 2018-07-09 15:47:57
Writing application : mkvmerge v24.0.0 ('Beyond The Pale') 32-bit
Writing library : libebml v1.3.6 + libmatroska v1.4.9
Cover : Yes
Attachments : Cover.jpg

Video
ID : 1
Format : AVC
Format/Info : Advanced Video Codec
Format profile : High@L3
Format settings : CABAC / 1 Ref Frames
Format settings, CABAC : Yes
Format settings, ReFrames : 1 frame
Format settings, GOP : M=1, N=12
Codec ID : V_MPEG4/ISO/AVC
Duration : 2 h 52 min
Bit rate : 1 930 kb/s
Width : 1 280 pixels
Height : 720 pixels
Display aspect ratio : 1.734
Frame rate mode : Variable
Frame rate : 24.941 FPS
Original frame rate : 25.000 FPS
Color space : YUV
Chroma subsampling : 4:2:0
Bit depth : 8 bits
Scan type : Progressive
Bits/(Pixel*Frame) : 0.084
Stream size : 2.33 GiB (94%)
Title : EXCLUSIVE Upload By www.LatestHDMovies.org
Language : Hindi
Default : Yes
Forced : No

Audio
ID : 2
Format : AAC
Format/Info : Advanced Audio Codec
Format profile : LC
Codec ID : A_AAC-2
Duration : 2 h 52 min
Bit rate : 128 kb/s
Channel(s) : 2 channels
Channel positions : Front: L R
Sampling rate : 48.0 kHz
Frame rate : 46.875 FPS (1024 SPF)
Compression mode : Lossy
Delay relative to video : 5 ms
Stream size : 158 MiB (6%)
Title : EXCLUSIVE Upload By www.LatestHDMovies.org
Language : Hindi
Default : Yes
Forced : No



SCREENSHOT
SCREENSHOT SCREENSHOT SCREENSHOT SCREENSHOT SCREENSHOT SCREENSHOT SCREENSHOT SCREENSHOT SCREENSHOT SCREENSHOT SCREENSHOT SCREENSHOT
[*]

Trackers

Refresh Leechers : Updated July 16, 2018

1. udp://tracker.opentrackr.org:1337/announce

2. udp://9.rarbg.me:2710/announce

3. udp://shadowshq.yi.org:6969/announce

4. udp://p4p.arenabg.com:1337/announce

5. udp://ipv4.tracker.harry.lu:80/announce

6. udp://tracker.leechers-paradise.org:6969/announce

7. udp://tracker.eddie4.nl:6969/announce

8. udp://shadowshq.eddie4.nl:6969/announce

9. udp://tracker.coppersurfer.tk:6969/announce

10. udp://9.rarbg.me:2780/announce

11. udp://9.rarbg.to:2710/announce

12. udp://p4p.arenabg.ch:1337/announce

13. udp://tracker.zer0day.to:1337/announce

14. udp://tracker.leechers-paradise.org:6969/announce

15. udp://coppersurfer.tk:6969/announce

Comments

You must log in to add a comment.

Embed Code

Sharing Widget

Top Movies ( auto generated report )

FILENAME SIZE SEEDS PEERS ADDED UPD
[i] Overboard (2018) [WEBRip] [720p] [YTS AM] 950.69 MB 5337 2987 1 day 1 hour
[i] How It Ends (2018) [WEBRip] [720p] [YTS AM] 970.57 MB 4127 2454 1 day 1 hour
[i] Furious (2017) [BluRay] [720p] [YTS AM] 1018.36 MB 3682 2215 1 day 1 hour
[i] Overboard (2018) [WEBRip] [1080p] [YTS AM] (1) 1.79 GB 2987 1164 1 day 1 hour
[i] Siberia (2018) [WEBRip] [720p] [YTS AM] 891.58 MB 2776 1456 1 day 1 hour
[i] How It Ends (2018) [WEBRip] [1080p] [YTS AM] 1.82 GB 2685 1386 1 day 1 hour
[i] Furious (2017) [BluRay] [1080p] [YTS AM] 1.9 GB 2622 1258 1 day 1 hour
[i] Siberia (2018) [WEBRip] [1080p] [YTS AM] 1.67 GB 1989 917 1 day 1 hour
[i] 7 Splinters in Time (2018) [WEBRip] [720p] [YTS AM] 653.09 MB 1218 446 1 day 1 hour
[i] Incredibles 2 2018 HDTC XViD AC3-ETRG 1.31 GB 1317 1064 3 days 2 days