Unsane 2018 1080p BluRay x264 Dual Audio [Hindi DD 5 1 - English 2 0] ESub [MW]

Posted by moviefreak •1821 on July 6, 2018 in Movies » Horror , verified torrent

Size: 1.87 GB , Seeds: 18 , Peers: 9 ( Updated July 12, 2018 - Refresh )

* Download via Magnet Link , * To download files you need a Bittorrent Client , * How to download torrents from Bit Torrent Scene?

Scrape History ( seeds + peers )

Internal Files

Unsane 2018 1080p BluRay x264 Dual Audio [Hindi DD 5.1 - English 2.0] ESub [MW]
Unsane 2018 1080p BluRay x264 Dual Audio [Hindi DD 5.1 - English 2.0] ESub [MW].mkv   1.87 GB

Hash Code

74653c52eeee21f28a92af9a75211a0f81dcb1b8

Description



SCREENSHOT

General
Format : Matroska
Format version : Version 4 / Version 2
File size : 1.87 GiB
Duration : 1 h 38 min
Overall bit rate : 2 724 kb/s

Video
ID : 1
Format : AVC
Format/Info : Advanced Video Codec
Format profile : High@L4.1
Format settings : CABAC / 4 Ref Frames
Format settings, CABAC : Yes
Format settings, RefFrames : 4 frames
Codec ID : V_MPEG4/ISO/AVC
Duration : 1 h 38 min
Bit rate : 2 150 kb/s
Width : 1 680 pixels
Height : 1 072 pixels
Display aspect ratio : 16:10
Frame rate mode : Constant
Frame rate : 23.976 FPS
Color space : YUV
Chroma subsampling : 4:2:0
Bit depth : 8 bits
Scan type : Progressive
Bits/(Pixel*Frame) : 0.050
Stream size : 1.47 GiB (79%)
Writing library : x264 core 155
Default : Yes
Forced : No

Audio #1
ID : 2
Format : AC-3
Format/Info : Audio Coding 3
Codec ID : A_AC3
Duration : 1 h 37 min
Bit rate mode : Constant
Bit rate : 448 kb/s
Channel(s) : 6 channels
Channel positions : Front: L C R, Side: L R, LFE
Sampling rate : 48.0 kHz
Frame rate : 31.250 FPS (1536 SPF)
Bit depth : 16 bits
Compression mode : Lossy
Stream size : 313 MiB (16%)
Language : Hindi
Service kind : Complete Main
Default : Yes
Forced : No

Audio #2
ID : 3
Format : AAC
Format/Info : Advanced Audio Codec
Format profile : LC
Codec ID : A_AAC-2
Duration : 1 h 38 min
Bit rate : 125 kb/s
Channel(s) : 2 channels
Channel positions : Front: L R
Sampling rate : 48.0 kHz
Frame rate : 46.875 FPS (1024 SPF)
Compression mode : Lossy
Stream size : 88.1 MiB (5%)
Language : English
Default : No
Forced : No

Text
ID : 4
Format : UTF-8
Codec ID : S_TEXT/UTF8
Codec ID/Info : UTF-8 Plain Text
Duration : 1 h 35 min
Bit rate : 61 b/s
Count of elements : 1283
Stream size : 43.0 KiB (0%)
Language : English
Default : Yes
Forced : No


https://pichub.site/image/YF9KT
https://pichub.site/image/YFHXN
https://pichub.site/image/YFFMD
https://pichub.site/image/YFQiZ
https://pichub.site/image/YFbeI

Trackers

Refresh Leechers : Updated July 12, 2018

1. udp://tracker.coppersurfer.tk:6969/announce

2. udp://tracker.pirateparty.gr:6969/announce

3. udp://tracker.coppersurfer.tk:6969/announce

4. udp://tracker.leechers-paradise.org:6969/announce

5. udp://eddie4.nl:6969/announce

6. udp://tracker.tiny-vps.com:6969/announce

7. udp://9.rarbg.me:2720/announce

8. udp://9.rarbg.to:2740/announce

9. udp://public.popcorn-tracker.org:6969/announce

10. udp://open.stealth.si:80/announce

11. udp://tracker.vanitycore.co:6969/announce

12. udp://tracker.opentrackr.org:1337/announce

13. udp://bt.firebit.co.uk:6969/announce

14. udp://shadowshq.yi.org:6969/announce

Comments

You must log in to add a comment.

Embed Code

Sharing Widget

Related torrents

FILENAME SIZE SEEDS PEERS ADDED UPD
[i] Unsane (2018) [BluRay] [1080p] [YTS AM] 1.57 GB 173 19 1 month 6 days
[i] Unsane.2018.BluRay.1080p.x264.DTS-HD.MA5.1-DTOne 9.09 GB 9 6 1 month 3 days
[i] Unsane 2018 1080p BluRay x264 DTS [MW]
posted by moviefreak in Movies - Horror
2.55 GB 7 3 1 month 6 days

Top Movies ( auto generated report )

FILENAME SIZE SEEDS PEERS ADDED UPD
[i] Overboard (2018) [WEBRip] [720p] [YTS AM] 950.69 MB 4797 1885 2 days 9 hours
[i] How It Ends (2018) [WEBRip] [720p] [YTS AM] 970.57 MB 3710 1804 2 days 7 hours
[i] Furious (2017) [BluRay] [720p] [YTS AM] 1018.36 MB 3682 2215 2 days 1 day
[i] Overboard (2018) [WEBRip] [1080p] [YTS AM] (1) 1.79 GB 2987 1164 2 days 1 day
[i] Siberia (2018) [WEBRip] [720p] [YTS AM] 891.58 MB 2776 1456 2 days 1 day
[i] How It Ends (2018) [WEBRip] [1080p] [YTS AM] 1.82 GB 2685 1386 2 days 1 day
[i] Furious (2017) [BluRay] [1080p] [YTS AM] 1.9 GB 2622 1258 2 days 1 day
[i] Siberia (2018) [WEBRip] [1080p] [YTS AM] 1.67 GB 1989 917 2 days 1 day
[i] Incredibles 2 2018 HDTC XViD AC3-ETRG 1.31 GB 1380 538 4 days 7 hours
[i] 7 Splinters in Time (2018) [WEBRip] [720p] [YTS AM] 653.09 MB 1218 446 2 days 1 day