The Snowman 2017 1080p BRRip 6CH AAC x264 - EiE

Posted on January 12, 2018 in Movies » Misc , verified torrent

Size: 2.02 GB , Seeds: 9 , Peers: 3 ( Updated April 21, 2018 - Refresh )

* Download via Magnet Link , * To download files you need a Bittorrent Client , * How to download torrents from Bit Torrent Scene?

Scrape History ( seeds + peers )

Internal Files

The Snowman 2017 1080p BRRip 6CH AAC x264 - EiE
Read Me.txt   794 Byte
ECLiPSE.txt   14.04 KB
The Snowman 2017.srt   96.77 KB
The Snowman 2017.mp4   2 GB

Hash Code

792279fb0e55a7371683cb93b077c8efa9242c18

Description

SCREENSHOT

SCREENSHOT

SCREENSHOT
Click on the link to see Screenshot:

https://lensdump.com/i/MPFp9

https://lensdump.com/i/MPf1o

https://lensdump.com/i/MPUF2

https://lensdump.com/i/MPNxi




Code:
Video

ID                                       : 1

Format                                   : AVC

Format/Info                              : Advanced Video Codec

Format settings, CABAC                   : Yes

Format settings, RefFrames               : 4 frames

Codec ID                                 : avc1

Codec ID/Info                            : Advanced Video Coding

Duration                                 : 1 h 59 min

Bit rate                                 : 2 141 kb/s

Maximum bit rate                         : 8 692 kb/s

Width                                    : 1 912 pixels

Height                                   : 1 032 pixels

Display aspect ratio                     : 1.85:1

Frame rate mode                          : Constant

Frame rate                               : 23.976 FPS

Color space                              : YUV

Chroma subsampling                       : 4:2:0

Bit depth                                : 8 bits

Scan type                                : Progressive

Bits/(Pixel*Frame)                       : 0.045

Stream size                              : 1.78 GiB (89%)


Audio

ID                                       : 2

Format                                   : AAC

Format/Info                              : Advanced Audio Codec

Format profile                           : LC

Duration                                 : 1 h 59 min

Bit rate mode                            : Variable

Bit rate                                 : 257 kb/s

Maximum bit rate                         : 331 kb/s

Channel(s)                               : 6 channels

Channel positions                        : Front: L C R, Side: L R, LFE

Sampling rate                            : 48.0 kHz

Frame rate                               : 46.875 FPS (1024 SPF)

Compression mode                         : Lossy

Stream size                              : 219 MiB (11%)

Language                                 : English


Torrent location

https://www.1337x.to/torrent/2726745/The-Snowman-2017-1080p-BRRip-6CH-AAC-x264-EiE/

Trackers

Refresh Leechers : Updated April 21, 2018

1. http://bigfoot1942.sektori.org:6969/announce

2. http://tracker2.wasabii.com.tw:6969/announce

3. http://tracker.opentrackr.org/announce

4. http://announce.torrentsmd.com:6969/announce

5. http://tracker.trackerfix.com/announce

6. http://tracker.opentrackr.org/announce

7. udp://explodie.org:6969/announce

8. udp://mgtracker.org:6969/announce

9. udp://asnet.pw:2710/announce

10. udp://tracker.mgtracker.org:2710/announce

11. udp://tracker4.piratux.com:6969/announce

12. udp://tracker.trackerfix.com:80/announce

13. udp://tracker.pomf.se:80/announce

14. udp://tracker.x4w.co:6969/announce

15. udp://castradio.net:6969/announce

16. udp://ipv4.tracker.harry.lu:80/announce

17. udp://tracker.mg64.net:6881/announce

18. udp://tracker.sktorrent.net:6969/announce

19. udp://tracker.blackunicorn.xyz:6969/announce

20. udp://tracker.internetwarriors.net:1337/announce

21. udp://public.popcorn-tracker.org:6969/announce

22. udp://glotorrents.pw:6969/announce

23. udp://tracker.vanitycore.co:6969/announce

24. udp://tracker.trackerfix.com:80/announce

25. udp://p4p.arenabg.ch:1337/announce

26. udp://9.rarbg.me:2710/announce

27. udp://tracker.zer0day.to:1337/announce

28. udp://tracker.opentrackr.org:1337/announce

29. udp://tracker.pirateparty.gr:6969/announce

30. udp://9.rarbg.to:2710/announce

31. udp://eddie4.nl:6969/announce

32. udp://tracker.coppersurfer.tk:6969/announce

33. udp://tracker.leechers-paradise.org:6969/announce

34. udp://tracker.zer0day.to:1337/announce

35. udp://tracker.vanitycore.co:6969/announce

36. udp://tracker.torrent.eu.org:451/announce

37. udp://tracker.pirateparty.gr:6969/announce

38. udp://tracker.opentrackr.org:1337/announce

39. udp://tracker.internetwarriors.net:1337/announce

40. udp://tracker.grepler.com:6969/announce

41. udp://thetracker.org:80/announce

42. udp://shadowshq.yi.org:6969/announce

43. udp://p4p.arenabg.com:1337/announce

44. udp://eddie4.nl:6969/announce

45. udp://9.rarbg.to:2720/announce

46. udp://9.rarbg.me:2770/announce

47. udp://tracker.coppersurfer.tk:80/announce

Comments

You must log in to add a comment.

Embed Code

Sharing Widget

Related torrents

FILENAME SIZE SEEDS PEERS ADDED UPD
[i] The Snowman (2017) [1080p] [YTS AG] 1.83 GB 165 18 5 months 2 months
[i] The Snowman (2017) [1080p] [YTS AG] 1.83 GB 86 10 5 months 2 months
[i] The.Snowman.2017.1080p.BluRay.DTS-HD.MA.7.1.x264-iFT 15.56 GB 6 10 5 months 2 months
[i] The Snowman 2017 1080p BluRay AC3 5 1 x264 ESub
posted by moviefreak in Movies - Horror
1.88 GB 5 3 5 months 2 months

Top Movies ( auto generated report )

FILENAME SIZE SEEDS PEERS ADDED UPD
[i] Rampage (2018) [WEBRip] [720p] [YTS AM] 924.3 MB 12877 8865 4 days 18 hours
[i] Rampage (2018) [WEBRip] [1080p] [YTS AM] 1.73 GB 11810 9729 4 days 3 days
[i] Ready Player One (2018) [WEBRip] [1080p] [YTS AM] 2.24 GB 10162 5063 4 days 1 day
[i] Ready Player One (2018) [WEBRip] [720p] [YTS AM] 1.16 GB 9167 6479 4 days 3 days
[i] Blockers (2018) [WEBRip] [720p] [YTS AM] 861.94 MB 3014 1665 2 days 6 hours
[i] Life of the Party (2018) [WEBRip] [720p] [YTS AM] 886.77 MB 3245 2104 4 days 3 days
[i] Isle of Dogs (2018) [WEBRip] [1080p] [YTS AM] 1.55 GB 2561 854 2 days 1 day
[i] Blockers (2018) [WEBRip] [1080p] [YTS AM] 1.62 GB 2549 1065 2 days 1 day
[i] The Death of Superman (2018) [WEBRip] [720p] [YTS AM] 690.36 MB 2300 1288 4 days 3 days
[i] Beirut (2018) [WEBRip] [720p] [YTS AM] 929.6 MB 1445 437 6 days 6 hours