Surgeons at the Edge of Life S1. revittony

DOWNLOAD TORRENT DOWNLOAD DOWNLOAD ANONYMOUS

Posted by revittony •390 on February 14, 2018 in Series » Misc , verified torrent

Size: 2.95 GB , Seeds: 1 , Peers: 0 ( Updated May 24, 2018 - Refresh )

* Download via Magnet Link , * To download files you need a Bittorrent Client , * How to download torrents from Bit Torrent Scene?

Scrape History ( seeds + peers )

Internal Files

Surgeons. at the Edge of Life S1
Surgeons S01E01 The Longest Day.mp4   1004.45 MB
Surgeons S01E02 Last Chance Saloon.mp4   1014.99 MB
Surgeons S01E03 The Pioneers.mp4   996.83 MB

Hash Code

95b06d63bd78c0623c30486ce607f983048384f5

Description

Format : MPEG-4
Format profile : Base Media
Codec ID : isom (isom/iso2/avc1/mp41)
Overall bit rate mode : Variable
Overall bit rate : 2 395 kb/s

Video
ID : 1
Format : AVC
Format/Info : Advanced Video Codec
Format profile : High@L4.1
Format settings : CABAC / 2 Ref Frames
Format settings, CABAC : Yes
Format settings, RefFrames : 2 frames
Codec ID : avc1
Codec ID/Info : Advanced Video Coding
Bit rate mode : Variable
Bit rate : 2 296 kb/s
Maximum bit rate : 3 500 kb/s
Width : 1 280 pixels
Height : 720 pixels
Display aspect ratio : 16:9
Frame rate mode : Constant
Frame rate : 25.000 FPS
Color space : YUV
Chroma subsampling : 4:2:0
Bit depth : 8 bits
Scan type : Progressive
Bits/(Pixel*Frame) : 0.100
Stream size : 963 MiB (96%)

Audio
ID : 2
Format : AAC
Format/Info : Advanced Audio Codec
Format profile : LC
Codec ID : mp4a-40-2
Duration : 58 min 38 s
Bit rate mode : Variable
Bit rate : 93.4 kb/s
Maximum bit rate : 94.9 kb/s
Channel(s) : 2 channels
Channel positions : Front: L R
Sampling rate : 48.0 kHz
Frame rate : 46.875 FPS (1024 SPF)
Compression mode : Lossy
Stream size : 39.2 MiB (4%)
Default : Yes
Alternate group : 1

Trackers

Refresh Leechers : Updated May 24, 2018

1. udp://tracker.openbittorrent.com:80/announce

2. udp://tracker.publicbt.com:80/announce

3. udp://tracker.coppersurfer.tk:6969/announce

4. udp://tracker.zer0day.to:1337/announce

5. udp://tracker.leechers-paradise.org:6969

Comments

You must log in to add a comment.

Embed Code

Sharing Widget

Related torrents

FILENAME SIZE SEEDS PEERS ADDED UPD
[i] Surgeons.At.The.Edge.Of.Life.S01E02.XviD-AFG 864.7 MB 2 1 4 months 1 month
[i] Surgeons.At.The.Edge.Of.Life.S01E02.720p.HDTV.x264-QPEL 1.05 GB 1 2 4 months 1 month

Top Series ( auto generated report )

FILENAME SIZE SEEDS PEERS ADDED UPD
[i] Westworld.S02E05.720p.WEB.H264-DEFLATE [rarbg] 1.8 GB 2044 665 4 days 4 days
[i] Krypton.S01E10.HDTV.x264-KILLERS[ettv] 243.4 MB 1568 191 1 day 19 hours
[i] Survivor.S36E14.HDTV.x264-F43[ettv] 818.16 MB 1503 305 1 day 18 hours
[i] Brooklyn.Nine-Nine.S05E22.720p.WEB.x264-TBS [rarbg] 548.4 MB 1093 354 4 days 4 days
[i] Supergirl.S03E19.HDTV.x264-KILLERS[rarbg] 270.9 MB 1064 311 3 days 3 days
[i] Survivor.S36E15.HDTV.x264-F43[ettv] 138.25 MB 1007 115 1 day 18 hours
[i] Elementary.S06E04.HDTV.x264-LOL[rarbg] 189.8 MB 989 158 3 days 3 days
[i] Supergirl.S03E19.720p.HDTV.x264-KILLERS[rarbg] 893.7 MB 834 175 3 days 3 days
[i] Last.Week.Tonight.With.John.Oliver.S05E12.720p.HDTV.X264-UAV [rarbg] 644.9 MB 808 132 4 days 4 days
[i] Westworld.S02E05.1080p.WEB.H264-DEFLATE [rarbg] 5.5 GB 756 390 4 days 4 days