Surgeons at the Edge of Life S1. revittony

Posted by revittony •456 on February 14, 2018 in Series » Misc , verified torrent

Size: 2.95 GB , Seeds: 0 , Peers: 0 ( Updated August 2, 2018 - Refresh )

Could not find any peer statistics from any torrent tracker.
This does not mean the torrent is dead.

* Download via Magnet Link , * To download files you need a Bittorrent Client , * How to download torrents from Bit Torrent Scene?

Scrape History ( seeds + peers )

Internal Files

Surgeons. at the Edge of Life S1
Surgeons S01E01 The Longest Day.mp4   1004.45 MB
Surgeons S01E02 Last Chance Saloon.mp4   1014.99 MB
Surgeons S01E03 The Pioneers.mp4   996.83 MB

Hash Code

95b06d63bd78c0623c30486ce607f983048384f5

Description

Format : MPEG-4
Format profile : Base Media
Codec ID : isom (isom/iso2/avc1/mp41)
Overall bit rate mode : Variable
Overall bit rate : 2 395 kb/s

Video
ID : 1
Format : AVC
Format/Info : Advanced Video Codec
Format profile : High@L4.1
Format settings : CABAC / 2 Ref Frames
Format settings, CABAC : Yes
Format settings, RefFrames : 2 frames
Codec ID : avc1
Codec ID/Info : Advanced Video Coding
Bit rate mode : Variable
Bit rate : 2 296 kb/s
Maximum bit rate : 3 500 kb/s
Width : 1 280 pixels
Height : 720 pixels
Display aspect ratio : 16:9
Frame rate mode : Constant
Frame rate : 25.000 FPS
Color space : YUV
Chroma subsampling : 4:2:0
Bit depth : 8 bits
Scan type : Progressive
Bits/(Pixel*Frame) : 0.100
Stream size : 963 MiB (96%)

Audio
ID : 2
Format : AAC
Format/Info : Advanced Audio Codec
Format profile : LC
Codec ID : mp4a-40-2
Duration : 58 min 38 s
Bit rate mode : Variable
Bit rate : 93.4 kb/s
Maximum bit rate : 94.9 kb/s
Channel(s) : 2 channels
Channel positions : Front: L R
Sampling rate : 48.0 kHz
Frame rate : 46.875 FPS (1024 SPF)
Compression mode : Lossy
Stream size : 39.2 MiB (4%)
Default : Yes
Alternate group : 1

Trackers

Refresh Leechers : Updated August 2, 2018

1. udp://tracker.openbittorrent.com:80/announce

2. udp://tracker.publicbt.com:80/announce

3. udp://tracker.coppersurfer.tk:6969/announce

4. udp://tracker.zer0day.to:1337/announce

5. udp://tracker.leechers-paradise.org:6969

Comments

You must log in to add a comment.

Embed Code

Sharing Widget

Related torrents

FILENAME SIZE SEEDS PEERS ADDED UPD
[i] Surgeons.At.The.Edge.Of.Life.S01E02.XviD-AFG 864.7 MB 0 0 7 months 1 month
[i] Surgeons.At.The.Edge.Of.Life.S01E02.720p.HDTV.x264-QPEL 1.05 GB 0 0 7 months 1 month

Top Series ( auto generated report )

FILENAME SIZE SEEDS PEERS ADDED UPD
[i] Castle.Rock.S01E06.WEBRip.x264-PBS[ettv] 231.72 MB 807 152 4 days 3 days
[i] Animal.Kingdom.US.S03E12.WEBRip.x264-TBS[ettv] 362.64 MB 590 139 4 days 3 days
[i] Suits.S08E05.HDTV.x264-SVA[ettv] 192.8 MB 503 46 3 days 2 days
[i] Killjoys.S04E05.WEBRip.x264-PBS[eztv] 280.5 MB 470 569 1 day 1 day
[i] Big.Brother.US.S20E22.HDTV.x264-[WRCR] 349.73 MB 440 46 3 days 2 days
[i] Killjoys.S04E05.WEBRip.x264-PBS[ettv] 280.45 MB 841 91 1 day 8 hours
[i] Hard.Knocks.S13E02.WEBRip.x264-PBS[ettv] 663.25 MB 328 62 3 days 2 days
[i] Wynonna.Earp.S03E05.HDTV.x264-KILLERS[ettv] 283.44 MB 319 30 1 day 13 hours
[i] MasterChef.US.S09E13.WEB.x264-CookieMonster[ettv] 341.7 MB 233 29 3 days 2 days
[i] The.Sinner.S02E03.HDTV.x264-KILLERS[ettv] 176.99 MB 232 24 3 days 2 days