Your IP Address is . Location is Your ISP and Government can track your torrent activity! Hide your IP with a VPN!

Surgeons at the Edge of Life S1. revittony

DOWNLOAD TORRENT DOWNLOAD DOWNLOAD ANONYMOUS

Posted by revittony •291 on February 14, 2018 in Series » Misc , verified torrent

Size: 2.95 GB , Seeds: 5 , Peers: 5 ( Updated February 20, 2018 - Refresh )

* Download via Magnet Link , * To download files you need a Bittorrent Client , * How to download torrents from Bit Torrent Scene?

Scrape History ( seeds + peers )

Internal Files

Surgeons. at the Edge of Life S1
Surgeons S01E01 The Longest Day.mp4   1004.45 MB
Surgeons S01E02 Last Chance Saloon.mp4   1014.99 MB
Surgeons S01E03 The Pioneers.mp4   996.83 MB

Hash Code

95b06d63bd78c0623c30486ce607f983048384f5

Description

Format : MPEG-4
Format profile : Base Media
Codec ID : isom (isom/iso2/avc1/mp41)
Overall bit rate mode : Variable
Overall bit rate : 2 395 kb/s

Video
ID : 1
Format : AVC
Format/Info : Advanced Video Codec
Format profile : High@L4.1
Format settings : CABAC / 2 Ref Frames
Format settings, CABAC : Yes
Format settings, RefFrames : 2 frames
Codec ID : avc1
Codec ID/Info : Advanced Video Coding
Bit rate mode : Variable
Bit rate : 2 296 kb/s
Maximum bit rate : 3 500 kb/s
Width : 1 280 pixels
Height : 720 pixels
Display aspect ratio : 16:9
Frame rate mode : Constant
Frame rate : 25.000 FPS
Color space : YUV
Chroma subsampling : 4:2:0
Bit depth : 8 bits
Scan type : Progressive
Bits/(Pixel*Frame) : 0.100
Stream size : 963 MiB (96%)

Audio
ID : 2
Format : AAC
Format/Info : Advanced Audio Codec
Format profile : LC
Codec ID : mp4a-40-2
Duration : 58 min 38 s
Bit rate mode : Variable
Bit rate : 93.4 kb/s
Maximum bit rate : 94.9 kb/s
Channel(s) : 2 channels
Channel positions : Front: L R
Sampling rate : 48.0 kHz
Frame rate : 46.875 FPS (1024 SPF)
Compression mode : Lossy
Stream size : 39.2 MiB (4%)
Default : Yes
Alternate group : 1

Trackers

Refresh Leechers : Updated February 20, 2018

1. udp://tracker.openbittorrent.com:80/announce

2. udp://tracker.publicbt.com:80/announce

3. udp://tracker.coppersurfer.tk:6969/announce

4. udp://tracker.zer0day.to:1337/announce

5. udp://tracker.leechers-paradise.org:6969

Comments

You must log in to add a comment.

Embed Code

Sharing Widget

Related torrents

FILENAME SIZE SEEDS PEERS ADDED UPD
[i] Surgeons.At.The.Edge.Of.Life.S01E02.XviD-AFG 864.7 MB 2 1 1 month 5 days
[i] Surgeons.At.The.Edge.Of.Life.S01E02.720p.HDTV.x264-QPEL 1.05 GB 0 2 1 month 5 days

Top Series ( auto generated report )

FILENAME SIZE SEEDS PEERS ADDED UPD
[i] RuPauls.Drag.Race.All.Stars.S03E05.WEBRip.360p.x264-WOWRip 185.07 MB 269 30 15 hours 13 hours
[i] The.Tick.2016.S01.Part.2.720p.AMZN.WEB-DL.DD+5.1.H.264-AJP69[ett 2.82 GB 178 472 8 hours 6 hours
[i] Monster S01E01 FRENCH HDTV 450.62 MB 110 4 10 hours 7 hours
[i] Gold.Rush.S08E18.CONVERT.WEB.x264-TBS[N1C] 355.2 MB 110 31 6 hours 4 hours
[i] Celebrity.Big.Brother.US.S01E11.HDTV.x264-F43[ettv] 558.97 MB 94 49 6 hours 4 hours
[i] 60.Days.In.S04E09.Nachos.Strippers.and.Whippit.WEB.h264-CAFFEiNE[ettv] 595.2 MB 90 36 12 hours 10 hours
[i] Celebrity.Big.Brother.US.S01E11.720p.HDTV.x264-BAJSKORV[ettv] 1.77 GB 88 34 6 hours 4 hours
[i] How.Its.Made.S14E11.WEB.x264-CAFFEiNE 286.54 MB 86 24 10 hours 8 hours
[i] Seven.Seconds.S01E06.720p.WEBRip.x264-SKGTV[ettv] 996 MB 74 70 18 hours 16 hours
[i] Nashville.2012.S06E08.XviD-AFG 353.27 MB 64 31 22 hours 20 hours