Superfly (2018) HDCAMRip x264 AAC by Full4movies.mkv

Posted on July 12, 2018 in Movies » Misc

Size: 462 MB , Seeds: 1 , Peers: 6 ( Updated July 12, 2018 - Refresh )

* Download via Magnet Link , * To download files you need a Bittorrent Client , * How to download torrents from Bit Torrent Scene?

Scrape History ( seeds + peers )

Internal Files

Superfly (2018) HDCAMRip x264 AAC by Full4movies.mkv
Superfly   2018) HDCAMRip x264 AAC by Full4movies.mkv (462.0 MB

Hash Code

694e61efddfc50bd91387e4a4243581060270875

Description

SCREENSHOT

General

Complete name : Superfly (2018) HDCAMRip x264 AAC by Full4movies.mkv

Format : Matroska

Format version : Version 4 / Version 2

File size : 462 MiB

Duration : 1 h 51 min

Overall bit rate : 582 kb/s

Encoded date : UTC 2018-07-12 18:13:04

Writing application : mkvmerge v8.1.0 ('Psychedelic Postcard') 32bit

Writing library : libebml v1.3.1 + libmatroska v1.4.2


Video

ID : 1

Format : AVC

Format/Info : Advanced Video Codec

Format profile : [email protected]
Format settings, CABAC : Yes

Format settings, RefFrames : 5 frames

Codec ID : V_MPEG4/ISO/AVC

Duration : 1 h 51 min

Bit rate : 512 kb/s

Width : 720 pixels

Height : 304 pixels

Display aspect ratio : 2.35:1

Frame rate mode : Constant

Frame rate : 29.970 FPS

Color space : YUV

Chroma subsampling : 4:2:0

Bit depth : 8 bits

Scan type : Progressive

Bits/(Pixel*Frame) : 0.078

Stream size : 409 MiB (89%)

Writing library : x264 core 148 r2643 5c65704

Language : English

Default : Yes

Forced : No


Audio

ID : 2

Format : AAC

Format/Info : Advanced Audio Codec

Format profile : LC

Codec ID : A_AAC

Duration : 1 h 51 min

Bit rate : 64.2 kb/s

Channel(s) : 2 channels

Channel positions : Front: L R

Sampling rate : 48.0 kHz

Frame rate : 46.875 FPS (1024 SPF)

Compression mode : Lossy

Stream size : 51.0 MiB (11%)

Language : English

Default : Yes

Forced : No


Screen Shoots
SCREENSHOT

Torrent location

https://www.1337x.to/torrent/3110360/Superfly-2018-HDCAMRip-x264-AAC-by-Full4movies-mkv/

Trackers

Refresh Leechers : Updated July 12, 2018

1. udp://9.rarbg.com:2710/announce

2. udp://tracker.opentrackr.org:1337/announce

3. udp://tracker.pirateparty.gr:6969/announce

4. udp://tracker.leechers-paradise.org:6969/announce

5. udp://tracker.coppersurfer.tk:6969/announce

6. udp://tracker.zer0day.to:1337/announce

Comments

You must log in to add a comment.

Embed Code

Sharing Widget

Top Movies ( auto generated report )

FILENAME SIZE SEEDS PEERS ADDED UPD
[i] Overboard (2018) [WEBRip] [720p] [YTS AM] 950.69 MB 4553 1748 3 days 1 hour
[i] How It Ends (2018) [WEBRip] [720p] [YTS AM] 970.57 MB 3710 1804 3 days 1 day
[i] Overboard (2018) [WEBRip] [1080p] [YTS AM] (1) 1.79 GB 2987 1164 3 days 2 days
[i] Siberia (2018) [WEBRip] [720p] [YTS AM] 891.58 MB 2776 1456 3 days 2 days
[i] Furious (2017) [BluRay] [720p] [YTS AM] 1018.36 MB 2730 859 3 days 13 hours
[i] How It Ends (2018) [WEBRip] [1080p] [YTS AM] 1.82 GB 2685 1386 3 days 2 days
[i] Furious (2017) [BluRay] [1080p] [YTS AM] 1.9 GB 2622 1258 3 days 2 days
[i] Siberia (2018) [WEBRip] [1080p] [YTS AM] 1.67 GB 1989 917 3 days 2 days
[i] 7 Splinters in Time (2018) [WEBRip] [720p] [YTS AM] 653.09 MB 1218 446 3 days 2 days
[i] 7 Splinters in Time (2018) [WEBRip] [1080p] [YTS AM] 1.22 GB 1014 293 3 days 2 days