Rampage.2018.Movies.720p.HD.TS.x264.AAC.Clean.AC3.Eng.Audio.LLG

Posted by LifeLongg •973 on April 16, 2018 in Movies » Action , verified torrent

Size: 962.05 MB , Seeds: 36 , Peers: 7 ( Updated June 19, 2018 - Refresh )

* Download via Magnet Link , * To download files you need a Bittorrent Client , * How to download torrents from Bit Torrent Scene?

Scrape History ( seeds + peers )

Internal Files

Rampage.2018.Movies.HD.TS.x264.AAC.Clean.AC3.Eng.Audio.LLG
Sample.ts   12.26 MB
Rampage.2018.Movies.HD.TS.x264.AAC.Clean.AC3.Eng.Audio.LLG.mp4   949.78 MB

Hash Code

fdb991faf254908c5177145bcb18c36fcd057806

Description

SCREENSHOT

SCREENSHOT

******************************Thumbnail:**********************

SCREENSHOT

******************************Screenshots:********************

Screenshot 1

Screenshot 2

Screenshot 3

Screenshot 4

Screenshot 5

Screenshot 6

Screenshot 7

Screenshot 8

Screenshot 9

Screenshot 0

**************************************************************

Complete name : Rampage.2018.Movies.HD.TS.x264.AAC.Clean.AC3.Eng.Audio.LLG.mp4
Format : MPEG-4
Format profile : Base Media
Codec ID : isom (isom/iso2/avc1/mp41)
File size : 950 MiB
Duration : 1 h 39 min
Overall bit rate : 1 333 kb/s
Writing application : Lavf57.56.101

Video
ID : 1
Format : AVC
Format/Info : Advanced Video Codec
Format profile : High@L3.1
Format settings : CABAC / 4 Ref Frames
Format settings, CABAC : Yes
Format settings, RefFrames : 4 frames
Codec ID : avc1
Codec ID/Info : Advanced Video Coding
Duration : 1 h 39 min
Bit rate : 1 200 kb/s
Width : 1 280 pixels
Height : 720 pixels
Display aspect ratio : 16:9
Frame rate mode : Constant
Frame rate : 29.970 (29970/1000) FPS
Color space : YUV
Chroma subsampling : 4:2:0
Bit depth : 8 bits
Scan type : Progressive
Bits/(Pixel*Frame) : 0.043
Stream size : 856 MiB (90%)

Audio
ID : 2
Format : AC-3
Format/Info : Audio Coding 3
Codec ID : ac-3
Duration : 1 h 39 min
Bit rate mode : Constant
Bit rate : 128 kb/s
Channel(s) : 2 channels
Channel positions : Front: L R
Sampling rate : 48.0 kHz
Frame rate : 31.250 FPS (1536 SPF)
Bit depth : 16 bits
Compression mode : Lossy
Stream size : 91.2 MiB (10%)
Language : English
Service kind : Complete Main
Default : Yes
Alternate group : 1

Trackers

Refresh Leechers : Updated June 19, 2018

1. udp://tracker.openbittorrent.com:80/announce

2. udp://tracker.opentrackr.org:1337/announce

3. UDP://TRACKER.LEECHERS-PARADISE.ORG:6969/ANNOUNCE

Comments

You must log in to add a comment.

Embed Code

Sharing Widget

Top Movies ( auto generated report )

FILENAME SIZE SEEDS PEERS ADDED UPD
[i] Overboard (2018) [WEBRip] [720p] [YTS AM] 950.69 MB 4797 1885 3 days 1 day
[i] How It Ends (2018) [WEBRip] [720p] [YTS AM] 970.57 MB 3710 1804 3 days 22 hours
[i] Overboard (2018) [WEBRip] [1080p] [YTS AM] (1) 1.79 GB 2987 1164 3 days 2 days
[i] Siberia (2018) [WEBRip] [720p] [YTS AM] 891.58 MB 2776 1456 3 days 2 days
[i] Furious (2017) [BluRay] [720p] [YTS AM] 1018.36 MB 2730 859 3 days 10 hours
[i] How It Ends (2018) [WEBRip] [1080p] [YTS AM] 1.82 GB 2685 1386 3 days 2 days
[i] Furious (2017) [BluRay] [1080p] [YTS AM] 1.9 GB 2622 1258 3 days 2 days
[i] Siberia (2018) [WEBRip] [1080p] [YTS AM] 1.67 GB 1989 917 3 days 2 days
[i] 7 Splinters in Time (2018) [WEBRip] [720p] [YTS AM] 653.09 MB 1218 446 3 days 2 days
[i] 7 Splinters in Time (2018) [WEBRip] [1080p] [YTS AM] 1.22 GB 1014 293 3 days 2 days