Jora 10 Numbaria 2017 720p HD Punjabi GOPISAHI

Posted by gopisahi •865 on January 14, 2018 in Movies » Action , verified torrent

Size: 568.29 MB , Seeds: 4 , Peers: 0 ( Updated April 23, 2018 - Refresh )

* Download via Magnet Link , * To download files you need a Bittorrent Client , * How to download torrents from Bit Torrent Scene?

Scrape History ( seeds + peers )

Internal Files

Jora 10 Numbaria 2017 720p HD Punjabi GOPISAHI.mkv
Jora 10 Numbaria 2017 720p HD Punjabi GOPISAHI.mkv   568.29 MB

Hash Code

29309b8d06f555663b85e75662e46d6a07e2f782

Description

SCREENSHOT
Format : Matroska
Format version : Version 4 / Version 2
File size : 568 MiB
Duration : 2 h 14 min
Overall bit rate : 589 kb/s
Movie name : Jora 10 Numbaria 2017

Video
Format : AVC
Codec ID : V_MPEG4/ISO/AVC
Duration : 2 h 14 min
Bit rate : 500 kb/s
Width : 1 280 pixels
Height : 536 pixels
Display aspect ratio : 2.40:1
Frame rate mode : Constant
Frame rate : 24.000 FPS
Stream size : 482 MiB (85%)
Writing library : x264

Audio: 2
Format : AAC
Duration : 2 h 14 min
Bit rate : 87.4 kb/s
Channel(s) : 6 channels
Channel positions : Front: L C R, Side: L R, LFE
Sampling rate : 44.1 kHz
Frame rate : 43.066 FPS (1024 SPF)
Compression mode : Lossy
Stream size : 84.3 MiB (15%)
Language : Panjabi
SCREENSHOT
SCREENSHOT
SCREENSHOT

Trackers

Refresh Leechers : Updated April 23, 2018

1. http://ipv4.tracker.harry.lu/announce

2. http://ipv4.tracker.harry.lu:80/announce

3. http://163.172.180.68:80/announce

4. http://t.nyaatracker.com/announce

5. http://tracker.devil-torrents.pl:80/announce

6. http://tracker.devil-torrents.pl/announce

7. http://open.kickasstracker.com/announce

8. http://163.172.180.68/announce

9. http://t.nyaatracker.com:80/announce

10. http://retracker.mgts.by:80/announce

11. http://45.33.11.224/announce

12. http://tracker.torrentyorg.pl:80/announce

13. http://pt.lax.mx:80/announce

14. udp://tracker.coppersurfer.tk:6969/announce

15. udp://tracker.pirateparty.gr:6969/announce

Comments

You must log in to add a comment.

Embed Code

Sharing Widget

Top Movies ( auto generated report )

FILENAME SIZE SEEDS PEERS ADDED UPD
[i] Rampage (2018) [WEBRip] [720p] [YTS AM] 924.3 MB 13992 12685 2 days 1 day
[i] Rampage (2018) [WEBRip] [1080p] [YTS AM] 1.73 GB 11810 9729 2 days 1 day
[i] Ready Player One (2018) [WEBRip] [1080p] [YTS AM] 2.24 GB 10162 5063 2 days 3 hours
[i] Ready Player One (2018) [WEBRip] [720p] [YTS AM] 1.16 GB 9167 6479 2 days 1 day
[i] Escape Plan 2 Hades (2018) [BluRay] [720p] [YTS AM] 821.12 MB 6877 4793 4 days 3 days
[i] Escape Plan 2 Hades (2018) [BluRay] [1080p] [YTS AM] 1.52 GB 4347 2178 4 days 3 days
[i] Blockers (2018) [WEBRip] [720p] [YTS AM] 861.94 MB 4304 4432 20 hours 18 hours
[i] Life of the Party (2018) [WEBRip] [720p] [YTS AM] 886.77 MB 3245 2104 2 days 1 day
[i] Blockers (2018) [WEBRip] [1080p] [YTS AM] 1.62 GB 2958 2345 20 hours 18 hours
[i] The Death of Superman (2018) [WEBRip] [720p] [YTS AM] 690.36 MB 2300 1288 2 days 1 day