Your IP Address is . Location is Your ISP and Government can track your torrent activity! Hide your IP with a VPN!

Jora 10 Numbaria 2017 720p HD Punjabi GOPISAHI

DOWNLOAD TORRENT DOWNLOAD DOWNLOAD ANONYMOUS

Posted by gopisahi •565 on January 14, 2018 in Movies » Action , verified torrent

Size: 568.29 MB , Seeds: 58 , Peers: 7 ( Updated January 15, 2018 - Refresh )

* Download via Magnet Link , * To download files you need a Bittorrent Client , * How to download torrents from Bit Torrent Scene?

Scrape History ( seeds + peers )

Internal Files

Jora 10 Numbaria 2017 720p HD Punjabi GOPISAHI.mkv
Jora 10 Numbaria 2017 720p HD Punjabi GOPISAHI.mkv   568.29 MB

Hash Code

29309b8d06f555663b85e75662e46d6a07e2f782

Description

SCREENSHOT
Format : Matroska
Format version : Version 4 / Version 2
File size : 568 MiB
Duration : 2 h 14 min
Overall bit rate : 589 kb/s
Movie name : Jora 10 Numbaria 2017

Video
Format : AVC
Codec ID : V_MPEG4/ISO/AVC
Duration : 2 h 14 min
Bit rate : 500 kb/s
Width : 1 280 pixels
Height : 536 pixels
Display aspect ratio : 2.40:1
Frame rate mode : Constant
Frame rate : 24.000 FPS
Stream size : 482 MiB (85%)
Writing library : x264

Audio: 2
Format : AAC
Duration : 2 h 14 min
Bit rate : 87.4 kb/s
Channel(s) : 6 channels
Channel positions : Front: L C R, Side: L R, LFE
Sampling rate : 44.1 kHz
Frame rate : 43.066 FPS (1024 SPF)
Compression mode : Lossy
Stream size : 84.3 MiB (15%)
Language : Panjabi
SCREENSHOT
SCREENSHOT
SCREENSHOT

Trackers

Refresh Leechers : Updated January 15, 2018

1. http://ipv4.tracker.harry.lu/announce

2. http://ipv4.tracker.harry.lu:80/announce

3. http://163.172.180.68:80/announce

4. http://t.nyaatracker.com/announce

5. http://tracker.devil-torrents.pl:80/announce

6. http://tracker.devil-torrents.pl/announce

7. http://open.kickasstracker.com/announce

8. http://163.172.180.68/announce

9. http://t.nyaatracker.com:80/announce

10. http://retracker.mgts.by:80/announce

11. http://45.33.11.224/announce

12. http://tracker.torrentyorg.pl:80/announce

13. http://pt.lax.mx:80/announce

14. udp://tracker.coppersurfer.tk:6969/announce

15. udp://tracker.pirateparty.gr:6969/announce

Comments

You must log in to add a comment.

Embed Code

Sharing Widget

Top Movies ( auto generated report )

FILENAME SIZE SEEDS PEERS ADDED UPD
[i] The.Shape.of.Water.2017.DVDScr.XVID.AC3.HQ.Hive-CM8[EtMovies] 1.74 GB 5629 2558 1 week 17 hours
[i] Blade Runner 2049 (2017) [1080p] [YTS AG] 2.51 GB 7969 3663 1 week 2 days
[i] Blade Runner 2049 (2017) [720p] [YTS AG] 1.2 GB 5639 1748 1 week 16 hours
[i] Justice League 2017 1080p KORSUB HDRip x264 AAC2 0-STUTTERSHIT 3.88 GB 4053 995 3 weeks 1 week
[i] Three.Billboards.Outside.Ebbing,Missouri.2017.DVDScr.XVID.AC3.HQ.Hive-CM8[EtMovies] 1.53 GB 3750 1241 3 weeks 6 days
[i] It (2017) [720p] [YTS AG] 997.65 MB 3302 940 3 weeks 2 days
[i] Happy Death Day (2017) [720p] [YTS AG] 708.01 MB 2553 807 1 week 1 day
[i] Happy Death Day (2017) [1080p] [YTS AG] 1.46 GB 2456 793 1 week 3 days
[i] Jigsaw 2017 1080p Web DL x264 AC3 TiTAN[EtHD] 3.21 GB 2449 1124 1 week 1 day
[i] It (2017) [1080p] [YTS AG] 2.06 GB 2422 419 3 weeks 3 days