Your IP Address is . Location is Your ISP and Government can track your torrent activity! Hide your IP with a VPN!

Jigsaw 2017 720p WEB-DL DD 5 1 x264

DOWNLOAD TORRENT DOWNLOAD DOWNLOAD ANONYMOUS

Posted by moviefreak •674 on January 9, 2018 in Movies » Horror , verified torrent

Size: 873.77 MB , Seeds: 16 , Peers: 10 ( Updated January 15, 2018 - Refresh )

* Download via Magnet Link , * To download files you need a Bittorrent Client , * How to download torrents from Bit Torrent Scene?

Scrape History ( seeds + peers )

Internal Files

Jigsaw 2017 720p WEB-DL DD 5.1 x264
Jigsaw 2017 720p WEB-DL DD 5.1 x264.mkv   873.77 MB

Hash Code

280fb797d5e9f901899d71be9257e3113a92e7b2

Description


SCREENSHOT

General
Format : Matroska
Format version : Version 4 / Version 2
File size : 874 MiB
Duration : 1 h 31 min
Overall bit rate : 1 329 kb/s

Video
ID : 1
Format : AVC
Format/Info : Advanced Video Codec
Format profile : High@L4.1
Format settings : CABAC / 4 Ref Frames
Format settings, CABAC : Yes
Format settings, ReFrames : 4 frames
Codec ID : V_MPEG4/ISO/AVC
Duration : 1 h 31 min
Bit rate : 1 100 kb/s
Width : 1 280 pixels
Height : 536 pixels
Display aspect ratio : 2.40:1
Frame rate mode : Constant
Frame rate : 23.976 (24000/1001) FPS
Color space : YUV
Chroma subsampling : 4:2:0
Bit depth : 8 bits
Scan type : Progressive
Bits/(Pixel*Frame) : 0.067
Stream size : 704 MiB (81%)
Writing library : x264 core 148 r2708 86b7198
Default : Yes
Forced : No

Audio
ID : 2
Format : AC-3
Format/Info : Audio Coding 3
Codec ID : A_AC3
Duration : 1 h 31 min
Bit rate mode : Constant
Bit rate : 256 kb/s
Channel(s) : 6 channels
Channel positions : Front: L C R, Side: L R, LFE
Sampling rate : 48.0 kHz
Frame rate : 31.250 FPS (1536 SPF)
Bit depth : 16 bits
Compression mode : Lossy
Stream size : 168 MiB (19%)
Language : English
Service kind : Complete Main
Default : Yes
Forced : No





SCREENSHOT
SCREENSHOT
SCREENSHOT
SCREENSHOT
SCREENSHOT
SCREENSHOT
SCREENSHOT
SCREENSHOT

Trackers

Refresh Leechers : Updated January 15, 2018

1. udp://tracker.coppersurfer.tk:6969/announce

2. udp://tracker.cyberia.is:6969/announce

3. udp://inferno.demonoid.pw:3391/announce

4. udp://open.stealth.si:80/announce

5. udp://tracker.pirateparty.gr:6969/announce

6. udp://peerfect.org:6969/announce

7. udp://p4p.arenabg.com:1337/announce

8. udp://p4p.arenabg.ch:1337/announce

9. udp://tracker.leechers-paradise.org:6969/announce

10. udp://ipv4.tracker.harry.lu:80/announce

11. udp://shadowshq.yi.org:6969/announce

12. udp://tracker.vanitycore.co:6969/announce

13. udp://tracker.opentrackr.org:1337/announce

14. udp://explodie.org:6969/announce

15. udp://tracker.zer0day.to:1337/announce

16. udp://tracker.leechers-paradise.org:6969/announce

17. udp://coppersurfer.tk:6969/announce

Comments

You must log in to add a comment.

Embed Code

Sharing Widget

Related torrents

FILENAME SIZE SEEDS PEERS ADDED UPD
[i] Jigsaw.2017.720p.WEB-DL.H264.AC3-EVO[EtHD] 2.89 GB 46 23 1 week 1 day
[i] Jigsaw.2017.720p.WEB-DL.Dual.YG
posted by yerisan710 in Movies - Thriller
1.55 GB 33 67 3 days 2 days
[i] Jigsaw 2017 720p WEB-DL 6CH AAC LLG
posted by LifeLongg in Movies - Horror
1.03 GB 20 13 6 days 7 hours
[i] Jigsaw.2017.720p.WEB-DL.H264.AC3-EVO 2.89 GB 14 6 1 week 1 day

Top Movies ( auto generated report )

FILENAME SIZE SEEDS PEERS ADDED UPD
[i] The.Shape.of.Water.2017.DVDScr.XVID.AC3.HQ.Hive-CM8[EtMovies] 1.74 GB 5629 2558 1 week 14 hours
[i] Blade Runner 2049 (2017) [1080p] [YTS AG] 2.51 GB 7969 3663 1 week 2 days
[i] Blade Runner 2049 (2017) [720p] [YTS AG] 1.2 GB 5639 1748 1 week 12 hours
[i] Justice League 2017 1080p KORSUB HDRip x264 AAC2 0-STUTTERSHIT 3.88 GB 4053 995 3 weeks 1 week
[i] Three.Billboards.Outside.Ebbing,Missouri.2017.DVDScr.XVID.AC3.HQ.Hive-CM8[EtMovies] 1.53 GB 3750 1241 2 weeks 6 days
[i] It (2017) [720p] [YTS AG] 997.65 MB 3302 940 3 weeks 2 days
[i] Happy Death Day (2017) [720p] [YTS AG] 708.01 MB 2553 807 1 week 1 day
[i] Happy Death Day (2017) [1080p] [YTS AG] 1.46 GB 2456 793 1 week 3 days
[i] Jigsaw 2017 1080p Web DL x264 AC3 TiTAN[EtHD] 3.21 GB 2449 1124 1 week 1 day
[i] It (2017) [1080p] [YTS AG] 2.06 GB 2422 419 3 weeks 3 days