Darkest Hour 2017 DVDSCR x264 AC3 LLG

Posted by LifeLongg •842 on January 12, 2018 in Movies » Drama , verified torrent

Size: 804.64 MB , Seeds: 10 , Peers: 3 ( Updated April 21, 2018 - Refresh )

* Download via Magnet Link , * To download files you need a Bittorrent Client , * How to download torrents from Bit Torrent Scene?

Scrape History ( seeds + peers )

Internal Files

Darkest.Hour.2017.DVDSCR.x264.AC3.LLG
Sample.ts   4.47 MB
Darkest.Hour.2017.DVDSCR.x264.AC3.LLG.mp4   800.17 MB

Hash Code

bf99e12ec31d96c0e94fb6091a335fc38734d488

Description

******************************Thumbnail:**********************

SCREENSHOT

******************************Screenshots:********************

Screenshot 1

Screenshot 2

Screenshot 3

Screenshot 4

Screenshot 5

Screenshot 6

Screenshot 7

Screenshot 8

Screenshot 9

Screenshot 0

**************************************************************

Complete name : Darkest.Hour.2017.DVDSCR.x264.AC3.LLG.mp4
Format : MPEG-4
Format profile : Base Media
Codec ID : isom (isom/iso2/avc1/mp41)
File size : 800 MiB
Duration : 2 h 4 min
Overall bit rate : 895 kb/s
Writing application : Lavf57.56.101

Video
ID : 1
Format : AVC
Format/Info : Advanced Video Codec
Format profile : High@L3
Format settings : CABAC / 4 Ref Frames
Format settings, CABAC : Yes
Format settings, RefFrames : 4 frames
Codec ID : avc1
Codec ID/Info : Advanced Video Coding
Duration : 2 h 4 min
Bit rate : 768 kb/s
Width : 720 pixels
Height : 384 pixels
Display aspect ratio : 1.85:1
Frame rate mode : Constant
Frame rate : 23.976 (23976/1000) FPS
Color space : YUV
Chroma subsampling : 4:2:0
Bit depth : 8 bits
Scan type : Progressive
Bits/(Pixel*Frame) : 0.116
Stream size : 681 MiB (85%)


Audio
ID : 2
Format : AC-3
Format/Info : Audio Coding 3
Codec ID : ac-3
Duration : 2 h 4 min
Bit rate mode : Constant
Bit rate : 128 kb/s
Channel(s) : 2 channels
Channel positions : Front: L R
Sampling rate : 48.0 kHz
Frame rate : 31.250 FPS (1536 SPF)
Bit depth : 16 bits
Compression mode : Lossy
Stream size : 114 MiB (14%)
Language : English
Service kind : Complete Main
Default : Yes
Alternate group : 1

Trackers

Refresh Leechers : Updated April 21, 2018

1. udp://tracker.openbittorrent.com:80/announce

2. udp://tracker.opentrackr.org:1337/announce

Comments

You must log in to add a comment.

Embed Code

Sharing Widget

Related torrents

FILENAME SIZE SEEDS PEERS ADDED UPD
[i]
[i]
Darkest.Hour.2017.DVDScr.XVID.AC3.HQ.Hive-CM8
1.92 GB 735 65 5 months 2 months
[i] Darkest Hour 2017 DVDSCR x264 700MB - Makintos13 707.2 MB 33 0 5 months 2 months
[i]
[i]
Darkest Hour 2017 DvDScr 700 MB - iExTV
Movies - Misc , Quality: Audio 10/10 - Video 10/10
703.3 MB 13 3 5 months 2 months
[i] Darkest Hour 2017 DVDScr XVID AC3 LLG
posted by LifeLongg in Movies - Drama
929.68 MB 6 4 4 months 1 month

Top Movies ( auto generated report )

FILENAME SIZE SEEDS PEERS ADDED UPD
[i] Rampage (2018) [WEBRip] [720p] [YTS AM] 924.3 MB 13992 12685 2 days 1 day
[i] Rampage (2018) [WEBRip] [1080p] [YTS AM] 1.73 GB 11810 9729 2 days 1 day
[i] Ready Player One (2018) [WEBRip] [1080p] [YTS AM] 2.24 GB 10162 5063 2 days 3 hours
[i] Ready Player One (2018) [WEBRip] [720p] [YTS AM] 1.16 GB 9167 6479 2 days 1 day
[i] Escape Plan 2 Hades (2018) [BluRay] [720p] [YTS AM] 821.12 MB 6877 4793 4 days 3 days
[i] Escape Plan 2 Hades (2018) [BluRay] [1080p] [YTS AM] 1.52 GB 4347 2178 4 days 3 days
[i] Blockers (2018) [WEBRip] [720p] [YTS AM] 861.94 MB 4304 4432 20 hours 18 hours
[i] Life of the Party (2018) [WEBRip] [720p] [YTS AM] 886.77 MB 3245 2104 2 days 1 day
[i] Blockers (2018) [WEBRip] [1080p] [YTS AM] 1.62 GB 2958 2345 20 hours 18 hours
[i] The Death of Superman (2018) [WEBRip] [720p] [YTS AM] 690.36 MB 2300 1288 2 days 1 day