Your IP Address is . Location is Your ISP and Government can track your torrent activity! Hide your IP with a VPN!

Acts of Violence 2018 1080p WEB-DL DD 5 1 x264

DOWNLOAD TORRENT DOWNLOAD DOWNLOAD ANONYMOUS

Posted by moviefreak •674 on January 13, 2018 in Movies » Action , verified torrent

Size: 1.33 GB , Seeds: 90 , Peers: 80 ( Updated January 14, 2018 - Refresh )

* Download via Magnet Link , * To download files you need a Bittorrent Client , * How to download torrents from Bit Torrent Scene?

Scrape History ( seeds + peers )

Internal Files

Acts of Violence 2018 1080p WEB-DL DD 5.1 x264
Acts of Violence 2018 1080p WEB-DL DD 5.1 x264.mkv   1.33 GB

Hash Code

39c3bf48ce99fbd75bcd524dc66938cf281002a3

Description


SCREENSHOT


General
Format : Matroska
Format version : Version 4 / Version 2
File size : 1.33 GiB
Duration : 1 h 26 min
Overall bit rate : 2 189 kb/s

Video
ID : 1
Format : AVC
Format/Info : Advanced Video Codec
Format profile : High@L4.1
Format settings : CABAC / 4 Ref Frames
Format settings, CABAC : Yes
Format settings, ReFrames : 4 frames
Codec ID : V_MPEG4/ISO/AVC
Duration : 1 h 26 min
Bit rate : 2 000 kb/s
Width : 1 908 pixels
Height : 792 pixels
Display aspect ratio : 2.40:1
Frame rate mode : Constant
Frame rate : 23.976 (24000/1001) FPS
Color space : YUV
Chroma subsampling : 4:2:0
Bit depth : 8 bits
Scan type : Progressive
Bits/(Pixel*Frame) : 0.055
Stream size : 1.17 GiB (88%)
Writing library : x264 core 148 r2708 86b7198
Default : Yes
Forced : No

Audio
ID : 2
Format : AC-3
Format/Info : Audio Coding 3
Codec ID : A_AC3
Duration : 1 h 26 min
Bit rate mode : Constant
Bit rate : 256 kb/s
Channel(s) : 6 channels
Channel positions : Front: L C R, Side: L R, LFE
Sampling rate : 48.0 kHz
Frame rate : 31.250 FPS (1536 SPF)
Bit depth : 16 bits
Compression mode : Lossy
Stream size : 159 MiB (12%)
Language : English
Service kind : Complete Main
Default : Yes
Forced : No




http://pichub.site/image/kmYg
http://pichub.site/image/kuzI
http://pichub.site/image/kG2X
http://pichub.site/image/kNj8
http://pichub.site/image/kvwJ
http://pichub.site/image/k0Th

Trackers

Refresh Leechers : Updated January 14, 2018

1. http://ipv4.tracker.harry.lu/announce

2. http://ipv4.tracker.harry.lu:80/announce

3. http://open.kickasstracker.com/announce

4. https://open.kickasstracker.com:443/announce

5. udp://tracker.coppersurfer.tk:6969/announce

6. udp://tracker.coppersurfer.tk:80/announce

7. udp://tracker.leechers-paradise.org:6969/announce

8. udp://tracker.openbittorrent.com:80/announce

9. udp://tracker.zer0day.to:1337/announce

10. http://82.209.230.66/announce

11. http://163.172.180.68/announce

12. udp://eddie4.nl:6969/announce

13. udp://explodie.org:6969/announce

14. udp://9.rarbg.to:2720/announce

15. udp://tracker.coppersurfer.tk:6969

Comments

You must log in to add a comment.

Embed Code

Sharing Widget

Related torrents

FILENAME SIZE SEEDS PEERS ADDED UPD
[i] Acts.of.Violence.2018.WEB-DL.x264-FGT [rarbg] 760.65 MB 1769 734 4 days 3 days
[i] Acts of Violence.2018.HDRip.XviD.AC3-EVO 1.42 GB 1760 1444 4 days 3 days
[i] Acts of Violence 2018 1080p WEB-DL DD5.1 H264-CMRG[EtHD] 3.02 GB 245 71 3 days 2 days
[i]
[i]
Acts of Violence 2018 HDRip XViD-ETRG
posted by juggs in Movies - Action , Quality: Audio 10/10 - Video 10/10
713.7 MB 192 162 4 days 3 days
[i] Acts of Violence.2018.HDRip.XviD.AC3-EVO[EtMovies] 1.43 GB 118 39 4 days 3 days
[i] Acts.of.Violence.2018.480p.WEB-DL.x264.Tv21 328.65 MB 109 27 2 days 1 day
[i] Acts of Violence 2018 1080p WEB-DL DD5.1 H264-CMRG 3 GB 67 15 4 days 3 days
[i] Acts of Violence.2018.HDRip.XviD.AC3-EVO 1.41 GB 47 32 4 days 3 days
[i] Acts of Violence.2018.720p.WEB-DL.H264.AC3-EVO 2.69 GB 26 7 4 days 3 days
[i] Acts of Violence 2018 HDRip x264 AAC-eXceSs 709.82 MB 26 25 3 days 2 days

Top Movies ( auto generated report )

FILENAME SIZE SEEDS PEERS ADDED UPD
[i] The.Shape.of.Water.2017.DVDScr.XVID.AC3.HQ.Hive-CM8[EtMovies] 1.74 GB 5629 2558 1 week 17 hours
[i] Blade Runner 2049 (2017) [1080p] [YTS AG] 2.51 GB 7969 3663 1 week 2 days
[i] Blade Runner 2049 (2017) [720p] [YTS AG] 1.2 GB 5639 1748 1 week 16 hours
[i] Justice League 2017 1080p KORSUB HDRip x264 AAC2 0-STUTTERSHIT 3.88 GB 4053 995 3 weeks 1 week
[i] Three.Billboards.Outside.Ebbing,Missouri.2017.DVDScr.XVID.AC3.HQ.Hive-CM8[EtMovies] 1.53 GB 3750 1241 3 weeks 1 week
[i] It (2017) [720p] [YTS AG] 997.65 MB 3302 940 3 weeks 2 days
[i] Happy Death Day (2017) [720p] [YTS AG] 708.01 MB 2553 807 1 week 1 day
[i] Happy Death Day (2017) [1080p] [YTS AG] 1.46 GB 2456 793 1 week 3 days
[i] Jigsaw 2017 1080p Web DL x264 AC3 TiTAN[EtHD] 3.21 GB 2449 1124 1 week 1 day
[i] It (2017) [1080p] [YTS AG] 2.06 GB 2422 419 3 weeks 3 days