Your IP Address is . Location is Your ISP and Government can track your torrent activity! Hide your IP with a VPN!

18+ RED SPARROW 2018 720p HC HDRip AC3 LLG

DOWNLOAD TORRENT DOWNLOAD PROTECT YOUR PRIVACY

Posted by LifeLongg •591 on April 16, 2018 in Movies » Drama , verified torrent

Size: 1.12 GB , Seeds: 104 , Peers: 147 ( Updated April 17, 2018 - Refresh )

* Download via Magnet Link , * To download files you need a Bittorrent Client , * How to download torrents from Bit Torrent Scene?

Scrape History ( seeds + peers )

Internal Files

18+.RED.SPARROW.2018.720p.HC.HDRip.AC3.LLG
Sample.ts   27.43 MB
18+.RED.SPARROW.2018.720p.HC.HDRip.AC3.LLG.mp4   1.09 GB

Hash Code

d49e2bd0cd151245d46299f9992faae609589397

Description

SCREENSHOT

SCREENSHOT

******************************Thumbnail:**********************

SCREENSHOT

******************************Screenshots:********************

Screenshot 1

Screenshot 2

Screenshot 3

Screenshot 4

Screenshot 5

Screenshot 6

Screenshot 7

Screenshot 8

Screenshot 9

Screenshot 0

**************************************************************

Complete name : 18+.RED.SPARROW.2018.720p.HC.HDRip.AC3.LLG.mp4
Format : MPEG-4
Format profile : Base Media
Codec ID : isom (isom/iso2/avc1/mp41)
File size : 1.09 GiB
Duration : 2 h 15 min
Overall bit rate : 1 148 kb/s
Writing application : Lavf57.56.101

Video
ID : 1
Format : AVC
Format/Info : Advanced Video Codec
Format profile : High@L3.1
Format settings : CABAC / 4 Ref Frames
Format settings, CABAC : Yes
Format settings, RefFrames : 4 frames
Codec ID : avc1
Codec ID/Info : Advanced Video Coding
Duration : 2 h 15 min
Bit rate : 900 kb/s
Width : 1 280 pixels
Height : 720 pixels
Display aspect ratio : 2.40:1
Original display aspect ratio : 2.40:1
Frame rate mode : Constant
Frame rate : 29.970 (29970/1000) FPS
Color space : YUV
Chroma subsampling : 4:2:0
Bit depth : 8 bits
Scan type : Progressive
Bits/(Pixel*Frame) : 0.033
Stream size : 861 MiB (77%)

Audio
ID : 2
Format : AC-3
Format/Info : Audio Coding 3
Codec ID : ac-3
Duration : 2 h 15 min
Bit rate mode : Constant
Bit rate : 256 kb/s
Channel(s) : 2 channels
Channel positions : Front: L R
Sampling rate : 48.0 kHz
Frame rate : 31.250 FPS (1536 SPF)
Bit depth : 16 bits
Compression mode : Lossy
Stream size : 249 MiB (22%)
Language : English
Service kind : Complete Main
Default : Yes
Alternate group : 1

Trackers

Refresh Leechers : Updated April 17, 2018

1. udp://tracker.openbittorrent.com:80/announce

2. udp://tracker.opentrackr.org:1337/announce

3. UDP://TRACKER.LEECHERS-PARADISE.ORG:6969/ANNOUNCE

Comments

You must log in to add a comment.

Embed Code

Sharing Widget

Related torrents

FILENAME SIZE SEEDS PEERS ADDED UPD
[i] Red.Sparrow.2018.HC.HDRip.XviD.AC3-EVO[EtMovies] 1.31 GB 3794 717 5 days 6 hours
[i] Red Sparrow 2018 HC HDRip XViD-ETRG
posted by juggs in Movies - Action
1.28 GB 305 273 5 days 4 days
[i] 18+ Red Sparrow 2018 1080p HC HDRip X264 AC3 LLG
posted by LifeLongg in Movies - Drama
2.02 GB 90 101 1 day 8 hours
[i] Red Sparrow 2018 iTALiAN MD 720p HDTS x264-iSTANCE[MT]
posted by Survivalofmisa in Movies - Thriller
1.65 GB 54 5 1 month 1 week
[i] Red Sparrow 2018 1080p HC HDRip AAC 2 0 x264 [MW]
posted by moviefreak in Movies - Mystery
1.99 GB 54 36 4 days 4 days
[i] 18+ Red Sparrow 2018 HC HDRip XviD AC3 LLG
posted by LifeLongg in Movies - Drama
1005.99 MB 53 44 3 days 2 days
[i]
[i]
Red Sparrow 2018 HDCAM ENG X264 HQMic-BABY
Movies - Misc , Quality: Audio 4/10 - Video 7/10
2 GB 52 23 3 weeks 1 week
[i] downloadhub in Red Sparrow (2018) 720p HC HDRip x264 AAC - Downloadhub
posted by downloadhub in Movies - Drama
1.01 GB 44 38 5 days 4 days
[i] Red.Sparrow.2018.HC.HDRip.XviD.AC3-EVO[N1C] 1.32 GB 41 9 5 days 4 days
[i] Red Sparrow 2018 HDCAM 720p MP3 HQMic - Makintos13 964 MB 35 11 1 month 2 days

Top Movies ( auto generated report )

FILENAME SIZE SEEDS PEERS ADDED UPD
[i] downloadhub in Sonu Ke Titu Ki Sweety (2018) Hindi 720p HDRip x264 AAC ESubs - Downloadhub 1.06 GB 883 490 1 day 12 hours
[i] Stephanie (2017) [WEBRip] [720p] [YTS AM] 738.22 MB 748 282 1 day 3 hours
[i] Backstabbing for Beginners (2018) [BluRay] [720p] [YTS AM] 928.47 MB 741 391 1 day 3 hours
[i] The Bugs Bunny Road-Runner Movie (1979) [WEBRip] [1080p] [YTS AM] 1.54 GB 627 299 4 hours 2 hours
[i] Backstabbing for Beginners (2018) [BluRay] [1080p] [YTS AM] 1.74 GB 618 225 1 day 3 hours
[i] The Bugs Bunny Road-Runner Movie (1979) [WEBRip] [720p] [YTS AM] 808.41 MB 599 249 4 hours 2 hours
[i] Stephanie (2017) [WEBRip] [1080p] [YTS AM] 1.38 GB 497 186 1 day 3 hours
[i] Jago A Life Underwater (2015) [WEBRip] [1080p] [YTS AM] 801.21 MB 497 184 4 hours 2 hours
[i] Jago A Life Underwater (2015) [WEBRip] [720p] [YTS AM] 420.61 MB 333 133 4 hours 2 hours
[i] Bleeding Steel.2017.HDRip.XviD.AC3-EVO 1.38 GB 296 121 1 day 6 hours