102 Not Out 2018 Hindi 720p HDRip x264 AAC ESub { TaRa } mkv

Posted by SkTaRa •195 on July 9, 2018 in Movies » Drama , verified torrent

Size: 1.41 GB , Seeds: 10 , Peers: 4 ( Updated July 15, 2018 )

* Download via Magnet Link , * To download files you need a Bittorrent Client , * How to download torrents from Bit Torrent Scene?

Scrape History ( seeds + peers )

Internal Files

102 Not Out 2018 Hindi 720p HDRip x264 AAC ESub { TaRa }.mkv
www.hdsector.to.txt   634 Byte
www.hdsector.to.nfo   6.53 KB
102 Not Out 2018.jpg   68.72 KB
926b421def16db2cc02c455cc47132a7.jpg   209.71 KB
102 Not Out 2018 Hindi 720p HDRip x264 AAC ESub { TaRa }.mkv.mkv   1.41 GB

Hash Code

b015cfaeca26b50504ea42a2a11e94861b21af22

Description


102 Not Out 2018 Hindi 720p HDRip x264 AAC ESub { TaRa }.mkv
SCREENSHOT
SCREENSHOT
===================================================================
General
Complete name : 102 Not Out 2018 Hindi 720p HDRip x264 AAC ESub { TaRa }.mkv
Format : Matroska
Format version : Version 4 / Version 2
File size : 1.41 GiB
Duration : 1h 43mn
Overall bit rate : 1 951 Kbps
===================================================================
Video
ID : 1
Format : AVC
Format/Info : Advanced Video Codec
Format profile : Main@L4
Format settings, CABAC : Yes
Format settings, ReFrames : 4 frames
Codec ID : V_MPEG4/ISO/AVC
Duration : 1h 43mn
Bit rate : 1 823 Kbps
Width : 1 280 pixels
Height : 544 pixels
Display aspect ratio : 2.35:1
Frame rate mode : Variable
Frame rate : 29.057 fps
Color space : YUV
Chroma subsampling : 4:2:0
Bit depth : 8 bits
Scan type : Progressive
Bits/(Pixel*Frame) : 0.090
Stream size : 1.32 GiB (93%)
Title : .....::::: TaRa :::::.....
Language : Hindi
Default : Yes
Forced : No
===================================================================
Audio
ID : 2
Format : AAC
Format/Info : Advanced Audio Codec
Format profile : LC
Codec ID : A_AAC
Duration : 1h 43mn
Bit rate : 126 Kbps
Channel(s) : 2 channels
Channel positions : Front: L R
Sampling rate : 44.1 KHz
Frame rate : 43.066 fps (1024 spf)
Compression mode : Lossy
Delay relative to video : -6ms
Stream size : 93.1 MiB (6%)
Title : .....::::: TaRa :::::.....
Language : Hindi
Default : Yes
Forced : No
===================================================================
Text
ID : 3
Format : UTF-8
Codec ID : S_TEXT/UTF8
Codec ID/Info : UTF-8 Plain Text
Duration : 1h 33mn
Bit rate : 61 bps
Count of elements : 1369
Stream size : 42.5 KiB (0%)
Title : .....::::: TaRa :::::.....
Language : English
Default : Yes
Forced : No
===================================================================

SCREENSHOT
SCREENSHOT
SCREENSHOT
SCREENSHOT
SCREENSHOT
SCREENSHOT
SCREENSHOT
SCREENSHOT
SCREENSHOT
SCREENSHOT
SCREENSHOT
SCREENSHOT
SCREENSHOT
SCREENSHOT
SCREENSHOT
SCREENSHOT
SCREENSHOT

SCREENSHOT
SCREENSHOT

SCREENSHOT
SCREENSHOT
SCREENSHOT
SCREENSHOT
SCREENSHOT
SCREENSHOT

SCREENSHOT

Trackers

Refresh Leechers : Updated July 15, 2018

1. udp://tracker.coppersurfer.tk:6969/announce

2. udp://tracker.pirateparty.gr:6969/announce

3. udp://shadowshq.yi.org:6969/announce

4. udp://eddie4.nl:6969/announce

5. udp://tracker.leechers-paradise.org:6969/announce

6. udp://tracker.opentrackr.org:1337/announce

7. udp://p4p.arenabg.ch:1337/announce

8. udp://p4p.arenabg.com:1337/announce

9. udp://9.rarbg.me:2720/announce

10. udp://9.rarbg.to:2780/announce

11. udp://tracker.coppersurfer.tk:80/announce

12. udp://tracker.vanitycore.co:6969/announce

13. udp://public.popcorn-tracker.org:6969/announce

14. udp://tracker.opentrackr.org:1337/announce

15. udp://tracker.zer0day.to:1337/announce

Comments

You must log in to add a comment.

Embed Code

Sharing Widget

Related torrents

FILENAME SIZE SEEDS PEERS ADDED UPD
[i] Overboard (2018) [WEBRip] [720p] [YTS AM] 950.69 MB 5337 2987 1 day 1 hour
[i] How It Ends (2018) [WEBRip] [720p] [YTS AM] 970.57 MB 4127 2454 1 day 1 hour
[i] Overboard (2018) [WEBRip] [1080p] [YTS AM] (1) 1.79 GB 2987 1164 1 day 1 hour
[i] Siberia (2018) [WEBRip] [720p] [YTS AM] 891.58 MB 2776 1456 1 day 1 hour
[i] How It Ends (2018) [WEBRip] [1080p] [YTS AM] 1.82 GB 2685 1386 1 day 1 hour
[i] Siberia (2018) [WEBRip] [1080p] [YTS AM] 1.67 GB 1989 917 1 day 1 hour
[i] Incredibles 2 2018 HDTC XViD AC3-ETRG
posted by juggs in Movies - Animation
1.31 GB 1317 1064 3 days 2 days
[i] 7 Splinters in Time (2018) [WEBRip] [720p] [YTS AM] 653.09 MB 1218 446 1 day 1 hour
[i] 7 Splinters in Time (2018) [WEBRip] [1080p] [YTS AM] 1.22 GB 1014 293 1 day 1 hour
[i] Wiz Khalifa - Rolling Papers 2 (2018) Mp3 (320kbps) [Hunter]
posted by The_Hunter in Music - Rap/hiphop
210.13 MB 884 233 3 days 2 days

Top Movies ( auto generated report )

FILENAME SIZE SEEDS PEERS ADDED UPD
[i] Overboard (2018) [WEBRip] [720p] [YTS AM] 950.69 MB 5337 2987 1 day 1 hour
[i] How It Ends (2018) [WEBRip] [720p] [YTS AM] 970.57 MB 4127 2454 1 day 1 hour
[i] Furious (2017) [BluRay] [720p] [YTS AM] 1018.36 MB 3682 2215 1 day 1 hour
[i] Overboard (2018) [WEBRip] [1080p] [YTS AM] (1) 1.79 GB 2987 1164 1 day 1 hour
[i] Siberia (2018) [WEBRip] [720p] [YTS AM] 891.58 MB 2776 1456 1 day 1 hour
[i] How It Ends (2018) [WEBRip] [1080p] [YTS AM] 1.82 GB 2685 1386 1 day 1 hour
[i] Furious (2017) [BluRay] [1080p] [YTS AM] 1.9 GB 2622 1258 1 day 1 hour
[i] Siberia (2018) [WEBRip] [1080p] [YTS AM] 1.67 GB 1989 917 1 day 1 hour
[i] 7 Splinters in Time (2018) [WEBRip] [720p] [YTS AM] 653.09 MB 1218 446 1 day 1 hour
[i] Incredibles 2 2018 HDTC XViD AC3-ETRG 1.31 GB 1317 1064 3 days 2 days